Kokoda

From DocuWiki

Jump to: navigation, search

Contents

[edit] General Information

History Documentary hosted by William McInnes, published by ABC in 2010 - English narration

[edit] Cover

Image: Kokoda-Cover.jpg

[edit] Information

This two-part documentary tells the story of the brutal World War II campaign fought between Australia and Japan in the green hell of the mountains of Papua New Guinea.

Told from both the Japanese and Australian perspectives the series also explores the impact of the decisions of high command on the soldiers at the front line.

Kokoda delves behind the myths of war to tell the story from both sides of the conflict, giving an authentic and comprehensive account of the desperate confusion of war, the intricate connections between the frontline soldiers and military high command, and the political agendas that influenced the campaign and continue to percolate through contemporary Australian society.

To tell the story with authenticity, the Kokoda film crew walked and filmed the length of the Kokoda Track, capturing for the first time the visceral nature of the terrain and the Owen Stanley Mountains.

The series follows in the footsteps of Australia's ill-equipped and poorly trained conscripts, the 'chocolate soldiers' and the battled hardened troops of the Australian Imperial Forces, walking the treacherous 98-kilometre jungle trail from Port Moresby to Kokoda, then on to the blood-stained battlegrounds of Gona, Buna and Sanananda.

The documentary includes interviews with Australian and Japanese veterans and historians, letters to loved ones, previously unpublished documents, archival footage, footage from the track and dramatisations in Australia and Papua New Guinea. The diaries of embedded war correspondents Okada Seizo and Chester Wilmot paint an intimate portrait of how soldiers on both sides felt during the battles.

Kokoda introduces the key commanders, including controversial American General Douglas MacArthur, Australia's General Sir Thomas Blamey, and Japanese Commander Tomitaro Horii, for whom defeat in a campaign that had cost thousands of Japanese lives, was intolerable.

Kokoda examines the Australian public's response to military campaigns - both then and now - and the myths that they engender.


[edit] Screenshots

Image: Kokoda-Screen0.jpg Image: Kokoda-Screen1.jpg

[edit] Technical Specs

  • General
  • Complete name : L:\ABC.Kokoda.1of2.The.Invasion.XviD.MP3.MVGroup.Forum.avi
  • Format : AVI
  • Format/Info : Audio Video Interleave
  • File size : 439 MiB
  • Duration : 55mn 11s
  • Overall bit rate : 1 113 Kbps
  • Writing application : VirtualDubMod 1.5.10.2 (build 2540/release)
  • Writing library : VirtualDubMod build 2540/release
  • Video
  • ID : 0
  • Format : MPEG-4 Visual
  • Format profile : Advanced Simple@L4
  • Format settings, BVOP : Yes
  • Format settings, QPel : No
  • Format settings, GMC : No warppoints
  • Format settings, Matrix : Default (MPEG)
  • Muxing mode : Packed bitstream
  • Codec ID : XVID
  • Codec ID/Hint : XviD
  • Duration : 55mn 11s
  • Bit rate : 950 Kbps
  • Width : 624 pixels
  • Height : 352 pixels
  • Display aspect ratio : 16:9
  • Frame rate : 25.000 fps
  • Color space : YUV
  • Chroma subsampling : 4:2:0
  • Bit depth : 8 bits
  • Scan type : Progressive
  • Bits/(Pixel*Frame) : 0.173
  • Stream size : 375 MiB (85%)
  • Writing library : XviD 1.2.1 (UTC 2008-12-04)
  • Audio
  • ID : 1
  • Format : MPEG Audio
  • Format version : Version 1
  • Format profile : Layer 3
  • Mode : Joint stereo
  • Mode extension : MS Stereo
  • Codec ID : 55
  • Codec ID/Hint : MP3
  • Duration : 55mn 11s
  • Bit rate mode : Variable
  • Bit rate : 150 Kbps
  • Minimum bit rate : 32.0 Kbps
  • Channel(s) : 2 channels
  • Sampling rate : 48.0 KHz
  • Stream size : 59.2 MiB (13%)
  • Alignment : Aligned on interleaves
  • Interleave, duration : 24 ms (0.60 video frame)
  • Interleave, preload duration : 223 ms
  • Writing library : LAME3.98r
  • Encoding settings : -m j -V 4 -q 2 -lowpass 17.5 --vbr-new -b 32
  • General
  • Complete name : L:\ABC.Kokoda.2of2.The.Counter.Attack.XviD.MP3.MVGroup.Forum.avi
  • Format : AVI
  • Format/Info : Audio Video Interleave
  • File size : 440 MiB
  • Duration : 56mn 19s
  • Overall bit rate : 1 091 Kbps
  • Writing application : VirtualDubMod 1.5.10.2 (build 2540/release)
  • Writing library : VirtualDubMod build 2540/release
  • Video
  • ID : 0
  • Format : MPEG-4 Visual
  • Format profile : Advanced Simple@L4
  • Format settings, BVOP : Yes
  • Format settings, QPel : No
  • Format settings, GMC : No warppoints
  • Format settings, Matrix : Default (MPEG)
  • Muxing mode : Packed bitstream
  • Codec ID : XVID
  • Codec ID/Hint : XviD
  • Duration : 56mn 19s
  • Bit rate : 930 Kbps
  • Width : 624 pixels
  • Height : 352 pixels
  • Display aspect ratio : 16:9
  • Frame rate : 25.000 fps
  • Color space : YUV
  • Chroma subsampling : 4:2:0
  • Bit depth : 8 bits
  • Scan type : Progressive
  • Bits/(Pixel*Frame) : 0.169
  • Stream size : 375 MiB (85%)
  • Writing library : XviD 1.2.1 (UTC 2008-12-04)
  • Audio
  • ID : 1
  • Format : MPEG Audio
  • Format version : Version 1
  • Format profile : Layer 3
  • Mode : Joint stereo
  • Mode extension : MS Stereo
  • Codec ID : 55
  • Codec ID/Hint : MP3
  • Duration : 56mn 19s
  • Bit rate mode : Variable
  • Bit rate : 148 Kbps
  • Minimum bit rate : 32.0 Kbps
  • Channel(s) : 2 channels
  • Sampling rate : 48.0 KHz
  • Stream size : 59.6 MiB (14%)
  • Alignment : Aligned on interleaves
  • Interleave, duration : 24 ms (0.60 video frame)
  • Interleave, preload duration : 124 ms
  • Writing library : LAME3.98r
  • Encoding settings : -m j -V 4 -q 2 -lowpass 17.5 --vbr-new -b 32

[edit] Links

[edit] Release Post

[edit] Related Documentaries


[edit] ed2k Links


Added by ThePunisher
Personal tools