The Nazi Games - Berlin 1936

From DocuWiki

Jump to: navigation, search

Contents

[edit] General Information

History Documentary hosted by Corey Johnson, published by PBS in 2016 - English narration

[edit] Cover

Image: The-Nazi-Games-Berlin-1936-Cover.jpg

[edit] Information

The film chronicles the story of how the Nazis and the IOC turned, to their mutual benefit, a small sports event into the modern Olympics. The grand themes and controversial issues from the 1936 Games have continued to this day: Monumentality, budget overruns, collusion with authoritarian regimes, corruption and sometimes even bribery. Featuring never before seen archival footage and new research, The Nazi Games reveals how the Olympics as we have come to know them were shaped by the collaboration of interests between Hitler and ambitious Olympic gentlemen. After initial distrust, both the IOC and the Nazis found common ground in turning the 1936 Games into the biggest Olympic show the world has ever seen. To this aim, Hitler officially promised that Jews would not be excluded from Germany’s Olympic team, and the IOC decided not to control it. At the same time, western democracies began doubting the morality of Olympic Games hosted by the Nazi regime. To go or not to go? That was the question. But the president of the American Olympic Committee, Avery Brundage, successfully discredited the boycott movement as a “Jewish conspiracy.” Thus, a first large-scale Olympic boycott was avoided. In the end, 49 nations agreed to take part in the Berlin Games – more than ever before. Under enormous time pressure, the largest Olympic building program so far got on its way. Gigantism forced architects and construction companies to take risks that result in terrible catastrophes. The most deadly was a cave-in at a construction site near the Brandenburg Gate where 19 workers are killed in one day. But not only construction workers paid for the Olympic megalomania with their lives. In an effort to “clean up” the Olympic host city, 600 Sinti and Roma were deported out of Berlin and later died in Nazi extermination camps. For the period of the Games, Berlin turned into a Potemkin village. What many didn’t know was that the atmosphere of peaceful harmony praised by so many visitors was a result of a draconian deployment of police power. The Reich’s security agencies took extensive measures to ensure that there would be no significant signs of political protest. Thus, everything ran smoothly and Hitler delivered what he had promised to the IOC – the greatest Games ever. After the splendid Olympics, the world public was willing to believe that Hitler was rather an angel of peace than a war monger. But only two weeks after the closing ceremony of the Berlin Games, Hitler secretly instructed his chief aides to prepare for war. And the IOC? It kept courting the Nazi regime. In 1939, after the “Kristallnacht” pogrom already had taken place the IOC honored Hitler with the Olympic Games yet another time. Only the outbreak of World War II prevented the 1940 Winter Games under the swastika flag from taking place.


[edit] Screenshots

[edit] Technical Specs

  • General
  • Complete name : PBS.The.Nazi.Games-Berlin.1936.WebRip.AVC.AAC.MVGroup.Forum.mp4
  • Format : MPEG-4
  • Format profile : Base Media
  • Codec ID : isom (isom/iso2/avc1/mp41)
  • File size : 574 MiB
  • Duration : 53mn 22s
  • Overall bit rate mode : Variable
  • Overall bit rate : 1 504 Kbps
  • Encoded date : UTC 1970-01-01 00:00:00
  • Tagged date : UTC 1970-01-01 00:00:00
  • Writing application : Lavf52.61.0
  • Video
  • ID : 1
  • Format : AVC
  • Format/Info : Advanced Video Codec
  • Format profile : Main@L3.1
  • Format settings, CABAC : Yes
  • Format settings, ReFrames : 2 frames
  • Codec ID : avc1
  • Codec ID/Info : Advanced Video Coding
  • Duration : 53mn 22s
  • Duration_LastFrame : -20ms
  • Bit rate : 1 372 Kbps
  • Width : 1 280 pixels
  • Height : 720 pixels
  • Display aspect ratio : 16:9
  • Frame rate mode : Constant
  • Frame rate : 25.000 fps
  • Standard : PAL
  • Color space : YUV
  • Chroma subsampling : 4:2:0
  • Bit depth : 8 bits
  • Scan type : Progressive
  • Bits/(Pixel*Frame) : 0.060
  • Stream size : 524 MiB (91%)
  • Encoded date : UTC 1970-01-01 00:00:00
  • Tagged date : UTC 1970-01-01 00:00:00
  • Color range : Limited
  • Audio
  • ID : 2
  • Format : AAC
  • Format/Info : Advanced Audio Codec
  • Format profile : HE-AAC / LC
  • Codec ID : 40
  • Duration : 53mn 22s
  • Bit rate mode : Variable
  • Bit rate : 127 Kbps
  • Channel(s) : 2 channels
  • Channel positions : Front: L R
  • Sampling rate : 44.1 KHz / 22.05 KHz
  • Frame rate : 21.533 fps (1024 spf)
  • Compression mode : Lossy
  • Stream size : 48.4 MiB (8%)
  • Encoded date : UTC 1970-01-01 00:00:00
  • Tagged date : UTC 1970-01-01 00:00:00

[edit] Links

[edit] Further Information

[edit] Release Post

[edit] Related Documentaries


[edit] ed2k Links


Added by haydent
Personal tools