Un contained

From DocuWiki

Jump to: navigation, search

Contents

[edit] General Information

Sociopolitical Documentary hosted by Mohtasham Ali Naghavi, published by Al-Jazeera in 2011 - English, Farsi Multilanguage narration

also known as

[edit] Cover

Image: Un-contained-Cover.jpg

[edit] Information

"Uncontained" has documented the quest of a Pakistani student in Iran between 2010 and 2011. After the assassination of two nuclear scientists in November 2010, "Mohtashim" get involved in Iran's nuclear case to investigate allegations that Iran is building nuclear weapons. He encounters with different people such as the controversial Member of Parliament "Ahmad Shirzad", an expelled French author, Thierry Meyssan and Marzieh Hashemi (Milani Franklin) an African American journalist. This documentary is the latest work of Safir Document Center which Mostafa Rezvani has directed and Mohammad Hassanpur is its sponsor which is coming soon to home video.


[edit] Screenshots

[edit] Technical Specs

  • D:\[F.ilm]\uncontained.mp4
  • General
  • Complete name : D:\[F.ilm]\uncontained.mp4
  • Format : MPEG-4
  • Format profile : Base Media
  • Codec ID : isom
  • File size : 2.79 GiB
  • Duration : 59mn 43s
  • Overall bit rate mode : Variable
  • Overall bit rate : 6 686 Kbps
  • Encoded date : UTC 2012-05-20 09:49:37
  • Tagged date : UTC 2012-05-20 09:49:37
  • Writing application : Lavf51.12.1
  • Video #1
  • ID : 1
  • Format : MPEG-4 Visual
  • Format profile : Simple@L1
  • Format settings, BVOP : No
  • Format settings, QPel : No
  • Format settings, GMC : No warppoints
  • Format settings, Matrix : Default (H.263)
  • Codec ID : 20
  • Duration : 59mn 43s
  • Bit rate : 6 530 Kbps
  • Width : 1 920 pixels
  • Height : 1 080 pixels
  • Display aspect ratio : 16:9
  • Frame rate mode : Constant
  • Frame rate : 25.000 fps
  • Color space : YUV
  • Chroma subsampling : 4:2:0
  • Bit depth : 8 bits
  • Scan type : Progressive
  • Compression mode : Lossy
  • Bits/(Pixel*Frame) : 0.126
  • Stream size : 2.72 GiB (98%)
  • Writing library : Lavc51.40.4
  • Encoded date : UTC 2012-05-20 09:49:37
  • Tagged date : UTC 2012-05-20 09:49:37
  • Audio #2
  • ID : 2
  • Format : AAC
  • Format/Info : Advanced Audio Codec
  • Format profile : LC
  • Codec ID : 40
  • Duration : 59mn 43s
  • Bit rate mode : Variable
  • Bit rate : 152 Kbps
  • Channel(s) : 2 channels
  • Channel positions : Front: L R
  • Sampling rate : 44.1 KHz
  • Compression mode : Lossy
  • Stream size : 64.9 MiB (2%)
  • Encoded date : UTC 2012-05-20 09:49:37
  • Tagged date : UTC 2012-05-20 09:49:37

[edit] Links

[edit] Release Post

[edit] Related Documentaries


[edit] ed2k Links


Added by sepano
Personal tools